Подписывайся на наш канал в Telegram https://t.me/torrentok и получи доступ к торрентам без ограничений!
.
Авторизация | Регистрация
torrento.xyz
Торрент скачать бесплатно Фильмы торрент скачать Решала. Нулевые (2019) WEBRip [H.264 / 720p-LQ] торрент скачать бесплатно


    Решала. Нулевые (2019) WEBRip [H.264 / 720p-LQ] торрент скачать бесплатно

    Дата: 7-01-2020, 05:00 | .torrent скачали: 86

    Решала. Нулевые (2019) WEBRip [H.264 / 720p-LQ]Производство: Россия/Байкал Кино, Кинокомпания Тема, Студия Гринбокс, Russian World Vision
    Жанр: Боевик, драма, триллер
    Режиссер: Жаргал Бадмацыренов, Александр Кузьминов

    Актеры
    Константин Озеров, Мосэ Куртанидзе, Чингиз Аздаев, Жаргал Бадмацыренов, Евгений Алешин, Вячеслав Ширяев, Биликто Дамбаев, Олег Петелин, Максим Сорочинский, Александра Чубыкина

    Описание

    2008 год. Старинные друзья Костя и Завгар придумывают не совсем легальные схемы заработка. Деньги приходят легко и так же легко уходят. Кажется, что этот успех будет вечен. Но на каждого найдется свой капкан, особенно если хочется еще больше денег. Костя затевает большую игру, которая может стоить и ему, и Завгару свободы, дружбы и даже самой жизни.

    Возраст: 18+ (зрителям, достигшим 18 лет. запрещено для детей)
    Дата премьеры в России: 5 декабря 2019
    Релиз от: NNMClub
    Продолжительность: 01: 27: 24
    Качество видео: WEBRip (batonchik )
    Перевод: Не требуется (русский)
    Субтитры: Отсутствуют
    Видео: AVC/H.264, 1280x566, ~2800 Kbps
    Аудио: AC3, 6 ch, 384 Kbps--Information 06.01.2020 20: 18: 12 Standard error stream
    ---Information 06.01.2020 20: 18: 19 y4m info: 1280x566p 1: 1 @ 24/1 fps (cfr)
    ---Information 06.01.2020 20: 18: 19 x264 info: using SAR=1/1
    ---Information 06.01.2020 20: 18: 19 x264 info: using cpu capabilities: MMX2 SSE2Fast SSSE3 SSE4.2 AVX
    ---Information 06.01.2020 20: 18: 19 x264 info: profile High, level 4.1, 4: 2: 0, 8-bit
    ---Information 06.01.2020 22: 28: 07 x264 info: frame I: 909 Avg QP: 13.39 size: 105894
    ---Information 06.01.2020 22: 28: 07 x264 info: frame P: 28756 Avg QP: 15.73 size: 36171
    ---Information 06.01.2020 22: 28: 07 x264 info: frame B: 96192 Avg QP: 19.07 size: 7194

    ---Information 06.01.2020 22: 28: 07 x264 info: consecutive B-frames: 3.2% 3.4% 8.6% 20.4% 17.2% 24.2% 20.1% 1.4% 0.7% 0.9%
    General
    Complete name : Решала. Нулевые (2019) WEBRip.H.264.720.LQ.NNMClub.mkv
    Format : Matroska
    Format version : Version 4
    File size : 1.94 GiB
    Duration : 1 h 27 min
    Overall bit rate : 3 175 kb/s
    Movie name : Решала. Нулевые (2019) WEBRip.H.264.720.LQ.NNMClub
    Encoded date : UTC 2020-01-06 19: 40: 31
    Writing application : mkvmerge v40.0.0 (\'Old Town Road + Pony\') 64-bit
    Writing library : libebml v1.3.9 + libmatroska v1.5.2
    Video
    ID : 1
    Format : AVC
    Format/Info : Advanced Video Codec
    Format profile : High@L4.1
    Format settings : CABAC/9 Ref Frames
    Format settings, CABAC : Yes
    Format settings, Reference frames : 9 frames
    Codec ID : V_MPEG4/ISO/AVC
    Duration : 1 h 27 min
    Bit rate : 2 800 kb/s
    Width : 1 280 pixels
    Height : 566 pixels
    Display aspect ratio : 2.25: 1
    Frame rate mode : Constant
    Frame rate : 24.000 FPS
    Color space : YUV
    Chroma subsampling : 4: 2: 0
    Bit depth : 8 bits
    Scan type : Progressive
    Bits/(Pixel*Frame) : 0.161
    Stream size : 1.70 GiB (88%)
    Title : Решала. Нулевые (2019) WEBRip.H.264.720.LQ.NNMClub
    Writing library : x264 core 158 r2984 3759fcb
    Encoding settings : cabac=1/ref=9/deblock=1: -3: -3/analyse=0x3: 0x133/me=umh/subme=10/psy=1/psy_rd=1.00: 0.25/mixed_ref=1/me_range=24/chroma_me=1/trellis=2/8x8dct=1/cqm=0/deadzone=6, 6/fast_pskip=0/chroma_qp_offset=-4/threads=12/lookahead_threads=2/sliced_threads=0/nr=0/decimate=0/interlaced=0/bluray_compat=0/constrained_intra=0/bframes=9/b_pyramid=2/b_adapt=2/b_bias=0/direct=1/weightb=1/open_gop=0/weightp=2/keyint=240/keyint_min=23/scenecut=40/intra_refresh=0/rc_lookahead=40/rc=2pass/mbtree=1/bitrate=2800/ratetol=1.0/qcomp=0.60/qpmin=0/qpmax=69/qpstep=4/cplxblur=20.0/qblur=0.5/vbv_maxrate=50000/vbv_bufsize=62500/nal_hrd=none/filler=0/ip_ratio=1.10/aq=3: 0.70
    Language : Russian
    Default : Yes
    Forced : No
    Audio
    ID : 2
    Format : AC-3
    Format/Info : Audio Coding 3
    Commercial name : Dolby Digital
    Codec ID : A_AC3
    Duration : 1 h 27 min
    Bit rate mode : Constant
    Bit rate : 384 kb/s
    Channel(s) : 6 channels
    Channel layout : L R C LFE Ls Rs
    Sampling rate : 48.0 kHz
    Frame rate : 31.250 FPS (1536 SPF)
    Compression mode : Lossy
    Stream size : 240 MiB (12%)
    Title : iTunes
    Language : Russian
    Service kind : Complete Main
    Default : Yes
    Forced : No

    Скриншоты для ознакомления



    Все одноименные релизы в Клубе Время раздачи: 24/7 (до появления первых 3-5 скачавших)

    Онлайн видео Решала. Нулевые (2019) WEBRip [H.264



    Решала. Нулевые (2019) WEBRip [H.264 / 720p-LQ] торрент скачать бесплатно
    Рейтинг →
     (голосов: 1, оценка 3/5, голосовать можно 1 раз )

    Другие торренты по теме:

  • Решала. Нулевые (2019) WEB-DL [H.264 / 1080p-LQ]
  • Решала. Нулевые (2019) WEB-DLRip
  • Решала. Нулевые (2019) WEB-DL [1080p] ATV
  • Решала. Нулевые (2019) WEB-DLRip [H.265] [10-bit]
  • Решала. Нулевые (2019) WEB-DLRip


    • Комментарии (0):

      Информация

      Информация

        Посетители, находящиеся в группе Гости, не могут оставлять комментарии в данной новости.