Подписывайся на наш канал в Telegram https://t.me/torrentok и получи доступ к торрентам без ограничений!
.
Авторизация | Регистрация
torrento.xyz
Торрент скачать бесплатно Фильмы торрент скачать Полицейский с Рублёвки. Новогодний беспредел 2 (2019) CamRip [AD] торрент скачать бесплатно


    Полицейский с Рублёвки. Новогодний беспредел 2 (2019) CamRip [AD] торрент скачать бесплатно

    Дата: 18-12-2019, 05:00 | .torrent скачали: 2701

    Полицейский с Рублёвки. Новогодний беспредел 2 (2019) CamRip [AD]Производство: Россия/LEGIO FELIX
    Жанр: Комедия, приключения
    Режиссер: Илья Куликов

    Актеры
    Сергей Бурунов, Роман Попов, София Каштанова, Рина Гришина, Светлана Суханова, Александр Дерепко, Сергей Штатнов, Ростислав Гулбис, Ирина Вилкова, Александра Бортич

    Описание

    Близится новый год, и сотрудники отдела полиции Барвихи планируют праздновать его за городом в тёплой компании старых друзей и коллег. Но непредвиденные обстоятельства в лице преступников, ограбивших крупное ювелирное предприятие, ставят праздник под угрозу. Смогут ли рублёвские полицейские вернуть украденные драгоценные камни стоимостью миллионы долларов и спасти свой праздник до того, как часы пробьют полночь?

    Возраст: 12+ (зрителям, достигшим 12 лет)
    Дата российской премьеры: 12 декабря 2019
    Продолжительность: 01: 23: 55
    Качество видео: CamRip
    Перевод: Не требуется (русский)
    Субтитры: Отсутствуют
    Реклама: присутствуют вставки видео, аудио, текстовой рекламы
    Видео: Xvid, 720x272, ~1935 Kbps
    Аудио: AC3, 2 ch, 384 Kbps
    Общее
    Полное имя : F: Policeman.S.S.Rulevki.New.Year\'s.Random.2.2019.avi
    Формат : AVI
    Формат/Информация : Audio Video Interleave
    Размер файла : 1, 37 Гбайт
    Продолжительность : 1 ч. 23 м.
    Общий поток : 2330 Кбит/сек
    Программа кодирования : VirtualDubMod 1.5.10.3 |www.virtualdub-fr.org|| (build 2550/release)
    Библиотека кодирования : VirtualDubMod build 2550/release
    Видео
    Идентификатор : 0
    Формат : MPEG-4 Visual
    Профиль формата : Advanced Simple@L5
    Настройки формата : BVOP2/Custom Matrix
    Параметр BVOP формата : 2
    Параметр QPel формата : Нет
    Параметр GMC формата : Без точки перехода
    Параметр матрицы формата : Выборочная
    Идентификатор кодека : XVID
    Идентификатор кодека/Подсказка : XviD
    Продолжительность : 1 ч. 23 м.
    Битрейт : 1937 Кбит/сек
    Ширина : 720 пикселей
    Высота : 272 пикселя
    Соотношение сторон : 2, 647
    Частота кадров : 23, 976 (24000/1001) кадра/сек
    Цветовое пространство : YUV
    Субдискретизация насыщенности : 4: 2: 0
    Битовая глубина : 8 бит
    Тип развёртки : Прогрессивная
    Метод сжатия : С потерями
    Бит/(Пиксели*Кадры) : 0.412
    Размер потока : 1, 14 Гбайт (83%)
    Библиотека кодирования : XviD 1.2.1 (UTC 2008-12-04)
    Аудио
    Идентификатор : 1
    Формат : AC-3
    Формат/Информация : Audio Coding 3
    Коммерческое название : Dolby Digital
    Идентификатор кодека : 2000
    Продолжительность : 1 ч. 23 м.
    Вид битрейта : Постоянный
    Битрейт : 384 Кбит/сек
    Каналы : 2 канала
    ChannelLayout : L R
    Частота : 48, 0 КГц
    Частота кадров : 31, 250 кадров/сек (1536 SPF)
    Метод сжатия : С потерями
    Размер потока : 231 Мбайт (16%)
    Выравнивание : Разделение по промежуткам
    Продолжительность промежутка : 42 мс. (1, 00 видеокадр)
    Время предзагрузки промежутка : 500 мс.
    ServiceKind/String : Complete Main

    Скриншоты для ознакомления



    Все одноименные релизы в Клубе
    Время раздачи: 24/7 (круглосуточно) (до появления первых 3-5 скачавших)

    Онлайн видео Верность (2019) WEBRip [H.264



    Полицейский с Рублёвки. Новогодний беспредел 2 (2019) CamRip [AD] торрент скачать бесплатно
    Рейтинг →
     (голосов: 1, оценка 5/5, голосовать можно 1 раз )

    Другие торренты по теме:

  • Полицейский с Рублёвки (2016) SATRip (серии 1 из 8) (обновляемая)
  • Полицейский с Рублёвки (2016) DVB [H.264] (серии 1-4 из 8) (обновляемая)
  • Полицейский с Рублёвки (2016) DVB (серии 1-8 из 8)
  • Полицейский с Рублёвки (2016) WEB-DL [H.264 / 720p-LQ] (Серии 1-8 из 8)
  • Полицейский с Рублёвки в Бескудниково (2017) SATRip [H.264] (сезон 2, серии 1 из 8 ) (обновляемая)
  • Полицейский с Рублёвки в Бескудниково (2017) SATRip (сезон 2, серии 1 из 8) (обновляемая)
  • Полицейский с Рублёвки в Бескудниково (2017) HDTVRip (сезон 1, серии 1 из 8) (обновляемая)
  • Полицейский с Рублёвки в Бескудниково (2017) HDTVRip [H.264 / 720p-LQ] (сезон 2, серии 1 из 8) (обновляемая)


    • Комментарии (0):

      Информация

      Информация

        Посетители, находящиеся в группе Гости, не могут оставлять комментарии в данной новости.