Подписывайся на наш канал в Telegram https://t.me/torrentok и получи доступ к торрентам без ограничений!
.
Авторизация | Регистрация
torrento.xyz
Торрент скачать бесплатно Фильмы торрент скачать Каникулы off-line (2018) WEBRip торрент скачать бесплатно


    Каникулы off-line (2018) WEBRip торрент скачать бесплатно

    Дата: 2-11-2019, 11:36 | .torrent скачали: 898

    Каникулы off-line (2018) WEBRipПроизводство: Казахстан
    Жанр: Комедия
    Режиссер: Руслан Акун

    Актеры
    Мейргат Амангелдин, Бекзат Елеусизов, Еламан Есентаев и др.

    Описание

    Три друга-студента решили начать собственное дело. Ребятам пришла идея открыть этно-лагерь для городских детей, где они могли бы получить знания о национальных традициях и жизни на селе. С появлением первых детей в лагере герои фильма переживают множество курьезных, а порой и опасных ситуаций.

    Релиз от: Алехаndr
    Продолжительность: 01: 32: 06
    Качество видео: WEBRip
    Язык озвучки: русский, казахский
    Субтитры: Отсутствуют
    Видео: Xvid, 720x304 (2.35: 1), ~1870 Kbps
    Аудио: AC3, 2 ch, 224 Kbps
    Общее
    Полное имя : G: Каникулы off-line (2018).by.Алехаndr.avi
    Формат : AVI
    Формат/Информация : Audio Video Interleave
    Размер файла : 1, 35 Гбайт
    Продолжительность : 1 ч. 32 м.
    Общий поток : 2104 Кбит/сек
    Видео
    Идентификатор : 0
    Формат : MPEG-4 Visual
    Профиль формата : Advanced Simple@L5
    Настройки формата : BVOP2
    Параметр BVOP формата : 2
    Параметр QPel формата : Нет
    Параметр GMC формата : Без точки перехода
    Параметр матрицы формата : Default (MPEG)
    Идентификатор кодека : XVID
    Идентификатор кодека/Подсказка : XviD
    Продолжительность : 1 ч. 32 м.
    Битрейт : 1869 Кбит/сек
    Ширина : 720 пикселей
    Высота : 304 пикселя
    Соотношение сторон : 2, 35: 1
    Частота кадров : 24, 000 кадра/сек
    Цветовое пространство : YUV
    Субдискретизация насыщенности : 4: 2: 0
    Битовая глубина : 8 бит
    Тип развёртки : Прогрессивная
    Метод сжатия : С потерями
    Бит/(Пиксели*Кадры) : 0.356
    Размер потока : 1, 20 Гбайт (89%)
    Библиотека кодирования : XviD 67
    Аудио
    Идентификатор : 1
    Формат : AC-3
    Формат/Информация : Audio Coding 3
    Коммерческое название : Dolby Digital
    Идентификатор кодека : 2000
    Продолжительность : 1 ч. 32 м.
    Вид битрейта : Постоянный
    Битрейт : 224 Кбит/сек
    Каналы : 2 канала
    ChannelLayout : L R
    Частота : 48, 0 КГц
    Частота кадров : 31, 250 кадров/сек (1536 SPF)
    Метод сжатия : С потерями
    Размер потока : 148 Мбайт (11%)
    Выравнивание : Соединение по промежуткам
    Продолжительность промежутка : 32 мс. (0, 77 видеокадр)
    ServiceKind/String : Complete Main

    Скриншоты для ознакомления



    Все одноименные релизы в Клубе
    Время раздачи: 24/7 (круглосуточно) (до появления первых 3-5 скачавших)

    Онлайн видео Каникулы off



    Каникулы off-line (2018) WEBRip торрент скачать бесплатно
    Рейтинг →
     (голосов: 1, оценка 3/5, голосовать можно 1 раз )

    Другие торренты по теме:

  • Андрей Райдер | Секс-каталог «Жаркие каникулы». Как провести отпуск или каникулы, не теряя даром времени. 50 лучших поз для секса вне дома (2016) [FB2]
  • Абхазская сказка / Летние каникулы / (2013) HDTV [1080i] скачать через торрент бесплатно
  • Мужские каникулы (2014) SATRip [1-4 серия из 4] скачать через торрент бесплатно
  • Мужские каникулы (2014) SATRip [H.264] [Сезон 1, серия 1-4 из 4] скачать через торрент бесплатно
  • Мужские каникулы (2014) DVB [H.264] (серии 1-4 из 4) скачать через торрент бесплатно
  • Всё включено: Каникулы в Греции / Sune i Grekland - All Inclusive (2012) HDRip скачать через торрент бесплатно
  • Каникулы строгого режима (2009) DVDRip [Полная версия]
  • Каникулы мечты / What We Did on Our Holiday (2014) BDRip [1080p] [EN / EN Sub] скачать через торрент бесплатно


    • Комментарии (0):

      Информация

      Информация

        Посетители, находящиеся в группе Гости, не могут оставлять комментарии в данной новости.