Подписывайся на наш канал в Telegram https://t.me/torrentok и получи доступ к торрентам без ограничений!
.
Авторизация | Регистрация
torrento.xyz
Торрент скачать бесплатно Фильмы торрент скачать Друзья / Friends (1994-2004) BDRip (сезон 1-10, серии 1-236 из 236) Paramount Comedy торрент скачать бесплатно


    Друзья / Friends (1994-2004) BDRip (сезон 1-10, серии 1-236 из 236) Paramount Comedy торрент скачать бесплатно

    Дата: 1-10-2019, 05:00 | .torrent скачали: 385

    Друзья / Friends (1994-2004) BDRip (сезон 1-10, серии 1-236 из 236) Paramount ComedyПроизводство: США/Bright/Kauffman/Crane Productions, Warner Bros. Television
    Жанр: комедия, мелодрама
    Режиссер: Гари Хэлворсон, Кевин Брайт, Майкл Лембек

    Актеры
    Дженнифер Энистон, Кортни Кокс, Лиза Кудроу, Мэтт ЛеБлан, Мэттью Перри, Дэвид Швиммер, Джеймс Майкл Тайлер, Эллиот Гулд, Кристина Пиклз, Мэгги Уилер и др.

    Описание

    Главные герои — шестеро друзей — Рейчел, Моника, Фиби, Джоуи, Чендлер и Росс. Три девушки и три парня, которые дружат, живут по соседству, вместе убивают время и противостоят жестокой реальности, делятся своими секретами и иногда очень сильно влюбляются.

    Возраст: 12+ (зрителям, достигшим 12 лет)
    Релиз от: Wentworth_Miller
    Продолжительность: ~ 00: 22: 00 серия
    Качество видео: BDRip
    Перевод: Многоголосый профессиональный (True Dubbing Studio по заказу Paramount Comedy)
    Субтитры: отсутствуют
    Реклама: отсутствует
    Видео: Xvid, 720x400, ~1599 kbps
    Аудио: AC3, 2 ch, 192 kbps - русский
    General
    Complete name : FriendsS01E01.BDRip. .Wentworth_Miller.avi
    Format : AVI
    Format/Info : Audio Video Interleave
    File size : 294 MiB
    Duration : 22 min 48 s
    Overall bit rate : 1 801 kb/s
    Writing application : VirtualDubMod 1.5.10.3 |www.virtualdub-fr.org|| (build 2550/release)
    Writing library : VirtualDubMod build 2550/release
    Video
    ID : 0
    Format : MPEG-4 Visual
    Format profile : Advanced Simple@L5
    Format settings : BVOP1
    Format settings, BVOP : 1
    Format settings, QPel : No
    Format settings, GMC : No warppoints
    Format settings, Matrix : Default (MPEG)
    Codec ID : XVID
    Codec ID/Hint : XviD
    Duration : 22 min 48 s
    Bit rate : 1 599 kb/s
    Width : 720 pixels
    Height : 400 pixels
    Display aspect ratio : 16: 9
    Frame rate : 23.976 (24000/1001) FPS
    Color space : YUV
    Chroma subsampling : 4: 2: 0
    Bit depth : 8 bits
    Scan type : Progressive
    Compression mode : Lossy
    Bits/(Pixel*Frame) : 0.232
    Stream size : 261 MiB (89%)
    Writing library : XviD 67
    Audio
    ID : 1
    Format : AC-3
    Format/Info : Audio Coding 3
    Commercial name : Dolby Digital
    Codec ID : 2000
    Duration : 22 min 48 s
    Bit rate mode : Constant
    Bit rate : 192 kb/s
    Channel(s) : 2 channels
    Channel layout : L R
    Sampling rate : 48.0 kHz
    Frame rate : 31.250 FPS (1536 SPF)
    Bit depth : 16 bits
    Compression mode : Lossy
    Stream size : 31.3 MiB (11%)
    Alignment : Split across interleaves
    Interleave, duration : 42 ms (1.00 video frame)
    Interleave, preload duratio : 500 ms
    Service kind : Complete Main

    Скриншоты для ознакомления



    Все одноименные релизы в Клубе
    Время раздачи: 24/7 (мультитрекерная раздача) (до появления первых 3-5 скачавших)

    Онлайн видео Друзья


    Друзья / Friends (1994-2004) BDRip (сезон 1-10, серии 1-236 из 236) Paramount Comedy торрент скачать бесплатно
    Рейтинг →
     (голосов: 1, оценка 5/5, голосовать можно 1 раз )

    Другие торренты по теме:

  • Друзья / Friends (1994–2004) BDRip [H.264 / 720p-LQ] [Hi10P] (Сезон 1-10, серии 1-236 из 236 + бонусы) скачать через торрент бесплатно
  • Друзья / Friends (1994-2004) BDRip (сезон 1-10, серии 1-236 из 236) РТР скачать через торрент бесплатно
  • Друзья / Friends (1994) BDRemux [H.264 / 1080р] (сезон 1, серии 1-24 из 24) True Dubbing Studio
  • Друзья / Friends (1995) BDRemux [H.264 / 1080р] (сезон 2, серии 1-24 из 24) True Dubbing Studio
  • Друзья / Friends (1996) BDRip [H.264 / 720р] (Сезон 3, серии 1-25 из 25) True Dubbing Studio, PTP, 1+1
  • Друзья / Friends (1997) BDRip [H.264 / 720р] (Сезон 4, серии 1-24 из 24) True Dubbing Studio, PTP, 1+1
  • Друзья / Friends (1998) BDRip [H.264 / 720р] (Сезон 5, серии 1-24 из 24) True Dubbing Studio, PTP, 1+1
  • Друзья / Friends (1999) BDRip [H.264 / 720р] (Сезон 6, серии 1-25 из 25) True Dubbing Studio, Россия, 1+1


    • Комментарии (0):

      Информация

      Информация

        Посетители, находящиеся в группе Гости, не могут оставлять комментарии в данной новости.