Подписывайся на наш канал в Telegram https://t.me/torrentok и получи доступ к торрентам без ограничений!
.
Авторизация | Регистрация
torrento.xyz
Торрент скачать бесплатно Книги торрент скачать HTML Academy | Профессиональный онлайн‑курс HTML и CSS, уровень 1 (2020) PCRec [H.264 / 1080p-LQ] торрент скачать бесплатно


    HTML Academy | Профессиональный онлайн‑курс HTML и CSS, уровень 1 (2020) PCRec [H.264 / 1080p-LQ] торрент скачать бесплатно

    Дата: 26-03-2020, 05:00 | .torrent скачали: 0

    HTML Academy | Профессиональный онлайн‑курс HTML и CSS, уровень 1 (2020) PCRec [H.264 / 1080p-LQ]Автор (режиссер): HTML Academy
    Производство: Вадим Макеев, Николай Шабалин, Александр Сушко
    Жанр: Верстка, HTML, CSS

    Описание

    На этом курсе вы научитесь делать настоящие проекты, такие же по уровню сложности, как в индустрии. И будете делать их правильно, чтобы после обучения выдавать результат высокого уровня, за который компании готовы платить.
    Продолжительность: 23: 47: 46
    Качество видео: PCRec
    Видео: AVC/H.264, 1280x1080, ~612-1005 Kbps
    Аудио: AAC, 2 ch, 253 Kbps
    Общее
    Уникальный идентификатор : 255490411920501895101876035545747578723 (0xC035A9D9F7621F13AB107A6CEBBA5F63)
    Полное имя : .5. Введение в CSSЛекция.mkv
    Формат : Matroska
    Версия формата : Version 4
    Размер файла : 1015 Мбайт
    Продолжительность : 2 ч. 26 м.
    Общий поток : 966 Кбит/сек
    Дата кодирования : UTC 2020-03-24 11: 14: 58
    Программа кодирования : mkvmerge v44.0.0 (\'Domino\') 64-bit
    Библиотека кодирования : libebml v1.3.10 + libmatroska v1.5.2
    Видео
    Идентификатор : 1
    Формат : AVC
    Формат/Информация : Advanced Video Codec
    Профиль формата : High@L4
    Настройки формата : CABAC/5 Ref Frames
    Параметр CABAC формата : Да
    Параметр RefFrames формата : 5 кадров
    Идентификатор кодека : V_MPEG4/ISO/AVC
    Продолжительность : 2 ч. 26 м.
    Битрейт : 710 Кбит/сек
    Ширина : 1920 пикселей
    Высота : 1080 пикселей
    Соотношение сторон : 16: 9
    Режим частоты кадров : Постоянный
    Частота кадров : 24, 000 кадра/сек
    Цветовое пространство : YUV
    Субдискретизация насыщенности : 4: 2: 0
    Битовая глубина : 8 бит
    Тип развёртки : Прогрессивная
    Бит/(Пиксели*Кадры) : 0.014
    Размер потока : 747 Мбайт (74%)
    Библиотека кодирования : x264 core 159 r10 1771b55
    Настройки программы : cabac=1/ref=5/deblock=1: 0: 0/analyse=0x3: 0x113/me=hex/subme=8/psy=1/psy_rd=1.00: 0.00/mixed_ref=1/me_range=16/chroma_me=1/trellis=2/8x8dct=1/cqm=0/deadzone=21, 11/fast_pskip=1/chroma_qp_offset=-2/threads=34/lookahead_threads=5/sliced_threads=0/nr=0/decimate=1/interlaced=0/bluray_compat=0/stitchable=1/constrained_intra=0/bframes=3/b_pyramid=2/b_adapt=2/b_bias=0/direct=3/weightb=1/open_gop=0/weightp=2/keyint=infinite/keyint_min=24/scenecut=40/intra_refresh=0/rc_lookahead=50/rc=crf/mbtree=1/crf=20.0/qcomp=0.60/qpmin=5/qpmax=69/qpstep=4/vbv_maxrate=5500/vbv_bufsize=15000/crf_max=0.0/nal_hrd=none/filler=0/ip_ratio=1.40/aq=1: 1.00
    Default : Да
    Forced : Нет
    Цветовой диапазон : Limited
    Основные цвета : BT.709
    Характеристики трансфера : BT.709
    Коэффициенты матрицы : BT.709
    Аудио
    Идентификатор : 2
    Формат : AAC LC
    Формат/Информация : Advanced Audio Codec Low Complexity
    Идентификатор кодека : A_AAC-2
    Продолжительность : 2 ч. 26 м.
    Битрейт : 253 Кбит/сек
    Каналы : 2 канала
    ChannelLayout : L R
    Частота : 48, 0 КГц
    Частота кадров : 46, 875 кадров/сек (1024 SPF)
    Метод сжатия : С потерями
    Размер потока : 266 Мбайт (26%)
    Default : Да
    Forced : Нет
    Меню
    00: 01: 49.000 : ru: Введение в CSS
    00: 57: 26.000 : ru: Стили кодирования
    01: 18: 15.000 : ru: Базовая стилизация
    01: 24: 10.000 : ru: Нормализация
    01: 31: 08.000 : ru: Подключение нестандартных шрифтов
    01: 47: 31.000 : ru: Абсолютные или относительные?
    01: 55: 53.000 : ru: Практика: базовая стилизация Барбершопа
    Скриншоты:


    Время раздачи: 24/7 (круглосуточно) (до появления первых 3-5 скачавших)

    HTML Academy | Профессиональный онлайн‑курс HTML и CSS, уровень 1 (2020) PCRec [H.264 / 1080p-LQ] торрент скачать бесплатно
    Рейтинг →
     (голосов: 1, оценка 5/5, голосовать можно 1 раз )

    Другие торренты по теме:

  • HTML Academy | Продвинутый онлайн-интенсив «Создание веб-интерфейсов с помощью HTML и CSS» (2015) PCRec скачать через торрент бесплатно
  • HTML Academy | Интенсивный онлайн-курс «Базовый HTML и CSS» (2016) PCRec [H.264]
  • HTML Academy | Интенсивный онлайн-курс «Продвинутый HTML и CSS» (2016) PCRec
  • HTML Academy | Интенсивный онлайн-курс «Базовый HTML и CSS» (2017) PCRec [H.264 / 1080p-LQ]
  • HTML Academy | Интенсивный онлайн-курс «Продвинутый HTML и CSS» (2017) PCRec [H.264]
  • HTML Academy | Интенсивный онлайн-курс «Базовый HTML и CSS» (2017) PCRec [H.264] [Обновленная программа]
  • HTML Academy | Профессиональный HTML и CSS, уровень 1 (2018) PCRec [H.264]
  • HTML Academy | Профессиональный HTML и CSS, уровень 2 (2018) PCRec [H.264]


    • Комментарии (0):

      Информация

      Информация

        Посетители, находящиеся в группе Гости, не могут оставлять комментарии в данной новости.

        ↓ Меню




        ↓ Опрос

        Вы добавили сайт в закладки?
        Да
        Нет


        Популярное